  0
SECTION
  2
HEADER
  9
$LIMMIN
 10
-0.724069
 20
0.000000
  9
$LIMMAX
 10
260.554839
 20
210.600000
  9
$EXTMIN
 10
-0.724069
 20
0.000000
  9
$EXTMAX
 10
260.554839
 20
210.600000
  9
$ANGBASE
 50
0.000000
  9
$ANGDIR
 70
0
  9
$INSUNITS
 70
5
  9
$DIMALT
 70
5
  9
$DIMLUNIT
 70
2
  9
$DIMASZ
 40
2.000000
  9
$DIMTXT
 40
3.000000
  9
$DIMRND
 40
0.010000
  9
$DIMEXE
 40
2.000000
  9
$DIMEXO
 40
2.000000
  9
$DIMAUNIT
 70
0
  9
$DIMADEC
 70
2
  9
$GRIDUNIT
 10
0.001000
 20
0.001000
  9
$PLIMMIN
 10
0.000000
 20
0.000000
  9
$PLIMMAX
 10
27.940000
 20
21.590000
  9
$PSVPSCALE
 40
0.100000
  0
ENDSEC
  0
SECTION
  2
TABLES
  0
TABLE
  2
LTYPE
 70
     1
  0
LTYPE
  2
CONTINUOUS
 70
    64
  3
Ausgez
 72
    65
 73
  0
 40
0.000000
  0
ENDTAB
  0
TABLE
  2
LAYER
 70
     1
  0
LAYER
  2
default
 70
    64
 62
0
  6
CONTINUOUS
  0
ENDTAB
  0
ENDSEC
  0
SECTION
  2
BLOCKS
  0
ENDSEC
  0
SECTION
  2
ENTITIES
  0
POINT
  8
default
  6
CONTINUOUS
 10
55.546139
 20
95.137921
 39
1
 62
0
  0
LINE
  8
default
  6
DASH
 10
54.771579
 20
83.633573
 11
54.771579
 21
84.783573
 39
1
 62
0
  0
LINE
  8
default
  6
CONTINUOUS
 10
53.035971
 20
95.968671
 11
56.706489
 21
94.985158
 39
1
 62
0
  0
POINT
  8
default
  6
CONTINUOUS
 10
56.706489
 20
94.985158
 39
1
 62
0
  0
LINE
  8
default
  6
CONTINUOUS
 10
56.706489
 20
94.985158
 11
51.788927
 21
76.632568
 39
1
 62
0
  0
LINE
  8
default
  6
CONTINUOUS
 10
51.788927
 20
76.632568
 11
48.118409
 21
77.616080
 39
1
 62
0
  0
LINE
  8
default
  6
CONTINUOUS
 10
48.118409
 20
77.616080
 11
50.654836
 21
87.082153
 39
1
 62
0
  0
LINE
  8
default
  6
CONTINUOUS
 10
54.325354
 20
86.098641
 11
50.654836
 21
87.082153
 39
1
 62
0
  0
LINE
  8
default
  6
CONTINUOUS
 10
54.325354
 20
86.098641
 11
55.774242
 21
85.710412
 39
1
 62
0
  0
LINE
  8
default
  6
CONTINUOUS
 10
55.774242
 20
85.710412
 11
55.178959
 21
83.488783
 39
1
 62
0
  0
LINE
  8
default
  6
CONTINUOUS
 10
55.178959
 20
83.488783
 11
53.730070
 21
83.877011
 39
1
 62
0
  0
LINE
  8
default
  6
CONTINUOUS
 10
50.669760
 20
87.078154
 11
51.886210
 21
91.618005
 39
1
 62
0
  0
LINE
  8
default
  6
CONTINUOUS
 10
51.904827
 20
91.629913
 11
52.240175
 21
91.631406
 39
1
 62
0
  0
LINE
  8
default
  6
CONTINUOUS
 10
52.240175
 20
91.631406
 11
52.555945
 21
91.105273
 39
1
 62
0
  0
LINE
  8
default
  6
CONTINUOUS
 10
52.555945
 20
91.105273
 11
52.165543
 21
91.011957
 39
1
 62
0
  0
LINE
  8
default
  6
CONTINUOUS
 10
52.165543
 20
91.011957
 11
52.714348
 21
86.525807
 39
1
 62
0
  0
LINE
  8
default
  6
DASH
 10
55.072396
 20
85.893969
 11
54.477112
 21
83.672340
 39
1
 62
0
  0
LINE
  8
default
  6
DASH
 10
54.477112
 20
83.672340
 11
54.774754
 21
84.783155
 39
1
 62
0
  0
CIRCLE
  8
default
  6
DASH
 10
54.774754
 20
84.783155
 40
0.250000
 39
1
 62
0
  0
LINE
  8
default
  6
CONTINUOUS
 10
57.751257
 20
76.632176
 11
61.421775
 21
77.615688
 39
1
 62
0
  0
LINE
  8
default
  6
CONTINUOUS
 10
55.214830
 20
86.098249
 11
58.885348
 21
87.081761
 39
1
 62
0
  0
LINE
  8
default
  6
CONTINUOUS
 10
55.214830
 20
86.098249
 11
53.765941
 21
85.710020
 39
1
 62
0
  0
LINE
  8
default
  6
CONTINUOUS
 10
53.765941
 20
85.710020
 11
54.361225
 21
83.488391
 39
1
 62
0
  0
LINE
  8
default
  6
CONTINUOUS
 10
54.361225
 20
83.488391
 11
55.810114
 21
83.876620
 39
1
 62
0
  0
LINE
  8
default
  6
CONTINUOUS
 10
58.870424
 20
87.077762
 11
57.653974
 21
91.617614
 39
1
 62
0
  0
LINE
  8
default
  6
CONTINUOUS
 10
57.635357
 20
91.629521
 11
57.300009
 21
91.631015
 39
1
 62
0
  0
LINE
  8
default
  6
CONTINUOUS
 10
57.300009
 20
91.631015
 11
56.984239
 21
91.104882
 39
1
 62
0
  0
LINE
  8
default
  6
CONTINUOUS
 10
56.984239
 20
91.104882
 11
57.374640
 21
91.011566
 39
1
 62
0
  0
LINE
  8
default
  6
CONTINUOUS
 10
57.374640
 20
91.011566
 11
56.825836
 21
86.525415
 39
1
 62
0
  0
LINE
  8
default
  6
DASH
 10
54.467788
 20
85.893578
 11
55.063072
 21
83.671948
 39
1
 62
0
  0
CIRCLE
  8
default
  6
DASH
 10
54.765430
 20
84.782763
 40
0.250000
 39
1
 62
0
  0
LINE
  8
default
  6
CONTINUOUS
 10
54.765169
 20
87.740052
 11
58.435687
 21
88.723565
 39
1
 62
0
  0
LINE
  8
default
  6
CONTINUOUS
 10
79.539108
 20
10.000880
 11
58.444776
 21
88.726000
 39
1
 62
0
  0
LINE
  8
default
  6
CONTINUOUS
 10
-0.724069
 20
10.000000
 11
73.196826
 21
10.000000
 39
1
 62
0
  0
LINE
  8
default
  6
CONTINUOUS
 10
56.706489
 20
94.985158
 11
33.934784
 21
10.000000
 39
1
 62
0
  0
LINE
  8
default
  6
CONTINUOUS
 10
34.461316
 20
10.000000
 11
108.316387
 21
10.000000
 39
1
 62
0
  0
LINE
  8
default
  6
CONTINUOUS
 10
54.774258
 20
87.742488
 11
75.605295
 21
10.000000
 39
1
 62
0
  0
DIMENSION
  8
default
  6
CONTINUOUS
  1
;;
 13
43.815483
 23
10.000000
 14
43.302299
 24
10.000000
 10
36.566153
 20
19.820403
 15
36.359276
 25
19.048328
 16
43.302299
 26
10.000000
 70
2
 39
1
 62
0
  0
LINE
  8
default
  6
CONTINUOUS
 10
30.000000
 20
10.000000
 11
53.034895
 21
95.967399
 39
1
 62
0
  0
LINE
  8
default
  6
CONTINUOUS
 10
41.749860
 20
44.740681
 11
67.477773
 21
44.745040
 39
1
 62
0
  0
LINE
  8
default
  6
CONTINUOUS
 10
42.053636
 20
48.540733
 11
67.826096
 21
48.545099
 39
1
 62
0
  0
ARC
  8
default
  6
CONTINUOUS
 10
41.840105
 20
46.652770
 40
1.900000
 50
83.547188
 51
164.122808
 39
1
 62
0
  0
ARC
  8
default
  6
CONTINUOUS
 10
41.840105
 20
46.652770
 40
1.900000
 50
164.122808
 51
265.475685
 39
1
 62
0
  0
ARC
  8
default
  6
CONTINUOUS
 10
67.768337
 20
46.622691
 40
1.900000
 50
261.203339
 51
335.726379
 39
1
 62
0
  0
ARC
  8
default
  6
CONTINUOUS
 10
67.768337
 20
46.622691
 40
1.900000
 50
335.726379
 51
86.347053
 39
1
 62
0
  0
CIRCLE
  8
default
  6
CONTINUOUS
 10
67.832224
 20
46.679687
 40
0.250000
 39
1
 62
0
  0
CIRCLE
  8
default
  6
CONTINUOUS
 10
41.687482
 20
46.679687
 40
0.250000
 39
1
 62
0
  0
DIMENSION
  8
default
  6
CONTINUOUS
  1
;;
 10
81.967130
 20
10.648870
 13
79.547530
 23
10.000000
 14
69.705008
 24
46.702241
 70
1
 39
1
 62
0
  0
CIRCLE
  8
default
  6
CONTINUOUS
 10
53.989299
 20
92.183137
 40
0.250000
 39
1
 62
0
  0
LINE
  8
default
  6
DASH
 10
53.552442
 20
97.887753
 11
61.471666
 21
95.760331
 39
1
 62
0
  0
CIRCLE
  8
default
  6
DASH
 10
53.989769
 20
92.181873
 40
0.250000
 39
1
 62
0
  0
LINE
  8
default
  6
DASH
 10
61.476019
 20
95.776577
 11
59.923105
 21
89.981022
 39
1
 62
0
  0
ARC
  8
default
  6
DASH
 10
53.227258
 20
92.810445
 40
1.000000
 50
165.000000
 51
255.000000
 39
1
 62
0
  0
LINE
  8
default
  6
DASH
 10
52.261332
 20
93.069264
 11
53.555427
 21
97.898893
 39
1
 62
0
  0
LINE
  8
default
  6
DASH
 10
59.923105
 20
89.981022
 11
52.968439
 21
91.844519
 39
1
 62
0
  0
DIMENSION
  8
default
  6
CONTINUOUS
  1
;;
 10
64.962493
 20
94.825284
 13
54.139160
 23
97.725388
 14
53.621522
 24
95.793537
 70
1
 39
1
 62
0
  0
DIMENSION
  8
default
  6
CONTINUOUS
  1
;;
 10
41.695656
 20
49.269437
 13
41.695656
 23
46.691694
 14
67.845130
 24
46.665119
 50
0.000000
 70
0
 39
1
 62
0
  0
POINT
  8
default
  6
CONTINUOUS
 10
79.542223
 20
10.000000
 39
1
 62
0
  0
POINT
  8
default
  6
CONTINUOUS
 10
58.448471
 20
88.722955
 39
1
 62
0
  0
CIRCLE
  8
default
  6
CONTINUOUS
 10
62.044906
 20
68.033690
 40
0.250000
 39
1
 62
0
  0
DIMENSION
  8
default
  6
CONTINUOUS
  1
;;
 10
71.436329
 20
92.220229
 13
58.469527
 23
88.751421
 14
79.536676
 24
10.000000
 70
1
 39
1
 62
0
  0
DIMENSION
  8
default
  6
CONTINUOUS
  1
;;
 10
71.298536
 20
70.515605
 13
63.862595
 23
68.524555
 14
79.533743
 24
9.997786
 70
1
 39
1
 62
0
  0
DIMENSION
  8
default
  6
CONTINUOUS
  1
70cm;;
 10
44.159890
 20
78.742753
 13
48.072511
 23
77.696142
 14
29.939897
 24
9.909684
 70
1
 39
1
 62
0
  0
DIMENSION
  8
default
  6
CONTINUOUS
  1
;;
 10
17.880354
 20
13.246875
 13
30.000000
 23
10.000000
 14
53.031752
 24
95.970874
 70
1
 39
1
 62
0
  0
POINT
  8
default
  6
CONTINUOUS
 10
153.637172
 20
95.076208
 39
1
 62
0
  0
LINE
  8
default
  6
DASH
 10
152.862612
 20
83.571860
 11
152.862612
 21
84.721860
 39
1
 62
0
  0
LINE
  8
default
  6
CONTINUOUS
 10
151.127004
 20
95.906958
 11
154.797522
 21
94.923445
 39
1
 62
0
  0
POINT
  8
default
  6
CONTINUOUS
 10
154.797522
 20
94.923445
 39
1
 62
0
  0
LINE
  8
default
  6
CONTINUOUS
 10
154.797522
 20
94.923445
 11
149.879960
 21
76.570855
 39
1
 62
0
  0
LINE
  8
default
  6
CONTINUOUS
 10
149.879960
 20
76.570855
 11
146.209442
 21
77.554367
 39
1
 62
0
  0
LINE
  8
default
  6
CONTINUOUS
 10
146.209442
 20
77.554367
 11
148.745869
 21
87.020440
 39
1
 62
0
  0
LINE
  8
default
  6
CONTINUOUS
 10
152.416387
 20
86.036928
 11
148.745869
 21
87.020440
 39
1
 62
0
  0
LINE
  8
default
  6
CONTINUOUS
 10
152.416387
 20
86.036928
 11
153.865275
 21
85.648699
 39
1
 62
0
  0
LINE
  8
default
  6
CONTINUOUS
 10
153.865275
 20
85.648699
 11
153.269992
 21
83.427070
 39
1
 62
0
  0
LINE
  8
default
  6
CONTINUOUS
 10
153.269992
 20
83.427070
 11
151.821103
 21
83.815298
 39
1
 62
0
  0
LINE
  8
default
  6
CONTINUOUS
 10
148.760793
 20
87.016441
 11
149.977243
 21
91.556292
 39
1
 62
0
  0
LINE
  8
default
  6
CONTINUOUS
 10
149.995860
 20
91.568200
 11
150.331208
 21
91.569693
 39
1
 62
0
  0
LINE
  8
default
  6
CONTINUOUS
 10
150.331208
 20
91.569693
 11
150.646978
 21
91.043560
 39
1
 62
0
  0
LINE
  8
default
  6
CONTINUOUS
 10
150.646978
 20
91.043560
 11
150.256576
 21
90.950244
 39
1
 62
0
  0
LINE
  8
default
  6
CONTINUOUS
 10
150.256576
 20
90.950244
 11
150.805381
 21
86.464094
 39
1
 62
0
  0
LINE
  8
default
  6
DASH
 10
153.163429
 20
85.832256
 11
152.568145
 21
83.610627
 39
1
 62
0
  0
LINE
  8
default
  6
DASH
 10
152.568145
 20
83.610627
 11
152.865787
 21
84.721442
 39
1
 62
0
  0
CIRCLE
  8
default
  6
DASH
 10
152.865787
 20
84.721442
 40
0.250000
 39
1
 62
0
  0
LINE
  8
default
  6
CONTINUOUS
 10
155.842290
 20
76.570463
 11
159.512808
 21
77.553975
 39
1
 62
0
  0
LINE
  8
default
  6
CONTINUOUS
 10
153.305863
 20
86.036536
 11
156.976381
 21
87.020048
 39
1
 62
0
  0
LINE
  8
default
  6
CONTINUOUS
 10
153.305863
 20
86.036536
 11
151.856974
 21
85.648307
 39
1
 62
0
  0
LINE
  8
default
  6
CONTINUOUS
 10
151.856974
 20
85.648307
 11
152.452258
 21
83.426678
 39
1
 62
0
  0
LINE
  8
default
  6
CONTINUOUS
 10
152.452258
 20
83.426678
 11
153.901147
 21
83.814907
 39
1
 62
0
  0
LINE
  8
default
  6
CONTINUOUS
 10
156.961457
 20
87.016049
 11
155.745007
 21
91.555901
 39
1
 62
0
  0
LINE
  8
default
  6
CONTINUOUS
 10
155.726390
 20
91.567808
 11
155.391042
 21
91.569302
 39
1
 62
0
  0
LINE
  8
default
  6
CONTINUOUS
 10
155.391042
 20
91.569302
 11
155.075272
 21
91.043169
 39
1
 62
0
  0
LINE
  8
default
  6
CONTINUOUS
 10
155.075272
 20
91.043169
 11
155.465673
 21
90.949853
 39
1
 62
0
  0
LINE
  8
default
  6
CONTINUOUS
 10
155.465673
 20
90.949853
 11
154.916869
 21
86.463702
 39
1
 62
0
  0
LINE
  8
default
  6
DASH
 10
152.558821
 20
85.831865
 11
153.154105
 21
83.610235
 39
1
 62
0
  0
CIRCLE
  8
default
  6
DASH
 10
152.856463
 20
84.721050
 40
0.250000
 39
1
 62
0
  0
LINE
  8
default
  6
CONTINUOUS
 10
152.856202
 20
87.678339
 11
156.526720
 21
88.661852
 39
1
 62
0
  0
LINE
  8
default
  6
CONTINUOUS
 10
177.630141
 20
9.939167
 11
156.535809
 21
88.664287
 39
1
 62
0
  0
LINE
  8
default
  6
DASH
 10
150.182368
 20
97.528863
 11
158.382368
 21
97.528863
 39
1
 62
0
  0
LINE
  8
default
  6
CONTINUOUS
 10
97.366964
 20
9.938287
 11
171.287859
 21
9.938287
 39
1
 62
0
  0
LINE
  8
default
  6
CONTINUOUS
 10
154.797522
 20
94.923445
 11
132.025817
 21
9.938287
 39
1
 62
0
  0
LINE
  8
default
  6
CONTINUOUS
 10
132.552349
 20
9.938287
 11
206.407420
 21
9.938287
 39
1
 62
0
  0
LINE
  8
default
  6
CONTINUOUS
 10
152.865291
 20
87.680775
 11
173.696328
 21
9.938287
 39
1
 62
0
  0
LINE
  8
default
  6
DASH
 10
182.881513
 20
97.528755
 11
122.881513
 21
97.528755
 39
1
 62
0
  0
LINE
  8
default
  6
CONTINUOUS
 10
182.881513
 20
99.428755
 11
122.881513
 21
99.428755
 39
1
 62
0
  0
LINE
  8
default
  6
CONTINUOUS
 10
182.881513
 20
97.528755
 11
122.881513
 21
97.528755
 39
1
 62
0
  0
LINE
  8
default
  6
CONTINUOUS
 10
122.881513
 20
97.528755
 11
122.881513
 21
99.428755
 39
1
 62
0
  0
LINE
  8
default
  6
CONTINUOUS
 10
182.881513
 20
99.428755
 11
182.881513
 21
97.428755
 39
1
 62
0
  0
LINE
  8
default
  6
CONTINUOUS
 10
177.881513
 20
97.428755
 11
174.353050
 21
97.428755
 39
1
 62
0
  0
LINE
  8
default
  6
CONTINUOUS
 10
174.353050
 20
97.428755
 11
174.353050
 21
93.900292
 39
1
 62
0
  0
LINE
  8
default
  6
CONTINUOUS
 10
174.353050
 20
93.900292
 11
177.881513
 21
93.900292
 39
1
 62
0
  0
LINE
  8
default
  6
CONTINUOUS
 10
177.881513
 20
93.900292
 11
177.881513
 21
97.428755
 39
1
 62
0
  0
LINE
  8
default
  6
CONTINUOUS
 10
174.353050
 20
93.900292
 11
177.881513
 21
97.428755
 39
1
 62
0
  0
LINE
  8
default
  6
CONTINUOUS
 10
177.881513
 20
97.428755
 11
177.881513
 21
93.928755
 39
1
 62
0
  0
LINE
  8
default
  6
CONTINUOUS
 10
177.881513
 20
93.928755
 11
174.353050
 21
97.457217
 39
1
 62
0
  0
ARC
  8
default
  6
CONTINUOUS
 10
160.144523
 20
68.010848
 40
1.750000
 50
151.004938
 51
234.381510
 39
1
 62
0
  0
LINE
  8
default
  6
CONTINUOUS
 10
158.610256
 20
68.865588
 11
174.560056
 21
96.491452
 39
1
 62
0
  0
ARC
  8
default
  6
CONTINUOUS
 10
176.117282
 20
95.692986
 40
1.750000
 50
54.640224
 51
152.853570
 39
1
 62
0
  0
ARC
  8
default
  6
CONTINUOUS
 10
176.117282
 20
95.692986
 40
1.750000
 50
324.743398
 51
54.640224
 39
1
 62
0
  0
CIRCLE
  8
default
  6
CONTINUOUS
 10
176.127826
 20
95.675067
 40
0.250000
 39
1
 62
0
  0
LINE
  8
default
  6
CONTINUOUS
 10
128.091033
 20
9.938287
 11
151.125928
 21
95.905686
 39
1
 62
0
  0
LINE
  8
default
  6
CONTINUOUS
 10
139.840893
 20
44.678968
 11
165.568806
 21
44.683327
 39
1
 62
0
  0
LINE
  8
default
  6
CONTINUOUS
 10
140.144669
 20
48.479020
 11
165.917129
 21
48.483386
 39
1
 62
0
  0
ARC
  8
default
  6
CONTINUOUS
 10
139.931138
 20
46.591057
 40
1.900000
 50
83.547188
 51
164.122808
 39
1
 62
0
  0
ARC
  8
default
  6
CONTINUOUS
 10
139.931138
 20
46.591057
 40
1.900000
 50
164.122808
 51
265.475685
 39
1
 62
0
  0
ARC
  8
default
  6
CONTINUOUS
 10
165.859370
 20
46.560978
 40
1.900000
 50
335.726379
 51
86.347053
 39
1
 62
0
  0
CIRCLE
  8
default
  6
CONTINUOUS
 10
139.778515
 20
46.617974
 40
0.250000
 39
1
 62
0
  0
DIMENSION
  8
default
  6
CONTINUOUS
  1
;;
 10
122.881513
 20
106.622019
 13
122.881513
 23
97.624595
 14
182.881513
 24
99.338390
 50
0.000000
 70
0
 39
1
 62
0
  0
CIRCLE
  8
default
  6
CONTINUOUS
 10
152.080332
 20
92.121424
 40
0.250000
 39
1
 62
0
  0
CIRCLE
  8
default
  6
DASH
 10
152.080802
 20
92.120160
 40
0.250000
 39
1
 62
0
  0
LINE
  8
default
  6
CONTINUOUS
 10
158.382368
 20
97.528863
 11
158.382368
 21
91.528863
 39
1
 62
0
  0
LINE
  8
default
  6
CONTINUOUS
 10
150.182368
 20
92.528863
 11
150.182368
 21
97.528863
 39
1
 62
0
  0
LINE
  8
default
  6
CONTINUOUS
 10
158.382368
 20
91.528863
 11
151.182368
 21
91.528863
 39
1
 62
0
  0
ARC
  8
default
  6
CONTINUOUS
 10
151.182368
 20
92.528863
 40
1.000000
 50
180.000000
 51
270.000000
 39
1
 62
0
  0
LINE
  8
default
  6
CONTINUOUS
 10
152.085347
 20
92.115143
 11
153.920606
 21
91.623387
 39
1
 62
0
  0
DIMENSION
  8
default
  6
CONTINUOUS
  1
3.4cm;;
 10
147.393718
 20
93.347607
 13
153.920606
 23
91.623387
 14
154.792712
 24
94.924670
 70
1
 39
1
 62
0
  0
DIMENSION
  8
default
  6
CONTINUOUS
  1
32cm;;
 10
183.724700
 20
91.293969
 13
176.133040
 23
95.680436
 14
160.116346
 24
67.960339
 70
1
 39
1
 62
0
  0
LINE
  8
default
  6
CONTINUOUS
 10
159.944401
 20
67.781312
 11
161.459945
 21
66.906312
 39
1
 62
0
  0
LINE
  8
default
  6
CONTINUOUS
 10
160.194401
 20
68.214325
 11
161.709945
 21
67.339325
 39
1
 62
0
  0
LINE
  8
default
  6
CONTINUOUS
 10
161.161957
 20
67.072734
 11
161.487781
 21
66.889172
 39
1
 62
0
  0
LINE
  8
default
  6
CONTINUOUS
 10
161.665946
 20
67.362153
 11
161.748224
 21
67.319768
 39
1
 62
0
  0
ARC
  8
default
  6
CONTINUOUS
 10
160.144523
 20
68.010848
 40
1.750000
 50
234.381510
 51
320.136714
 39
1
 62
0
  0
LINE
  8
default
  6
CONTINUOUS
 10
161.747123
 20
67.317860
 11
177.546288
 21
94.682817
 39
1
 62
0
  0
ARC
  8
default
  6
CONTINUOUS
 10
160.111219
 20
67.979640
 40
0.250000
 50
148.009162
 51
229.330837
 39
1
 62
0
  0
ARC
  8
default
  6
CONTINUOUS
 10
160.111219
 20
67.979640
 40
0.250000
 50
48.332103
 51
148.009162
 39
1
 62
0
  0
ARC
  8
default
  6
CONTINUOUS
 10
165.923257
 20
46.617974
 40
0.250000
 50
85.840233
 51
180.000000
 39
1
 62
0
  0
ARC
  8
default
  6
CONTINUOUS
 10
165.923257
 20
46.617974
 40
0.250000
 50
0.000000
 51
85.840233
 39
1
 62
0
  0
LINE
  8
default
  6
CONTINUOUS
 10
165.673556
 20
46.605745
 11
165.673556
 21
44.670086
 39
1
 62
0
  0
LINE
  8
default
  6
CONTINUOUS
 10
166.173556
 20
46.605745
 11
166.173556
 21
44.687135
 39
1
 62
0
  0
ARC
  8
default
  6
CONTINUOUS
 10
165.859370
 20
46.560978
 40
1.900000
 50
261.203339
 51
264.387692
 39
1
 62
0
  0
ARC
  8
default
  6
CONTINUOUS
 10
165.859370
 20
46.560978
 40
1.900000
 50
279.518218
 51
335.726379
 39
1
 62
0
  0
POINT
  8
default
  6
CONTINUOUS
 10
30.000000
 20
120.000000
 39
1
 62
0
  0
POINT
  8
default
  6
CONTINUOUS
 10
30.000000
 20
120.000000
 39
1
 62
0
  0
LINE
  8
default
  6
CONTINUOUS
 10
30.000000
 20
120.000000
 11
30.000000
 21
206.000000
 39
1
 62
0
  0
LINE
  8
default
  6
CONTINUOUS
 10
39.000000
 20
163.000000
 11
39.000000
 21
206.000000
 39
1
 62
0
  0
LINE
  8
default
  6
CONTINUOUS
 10
39.000000
 20
120.000000
 11
39.000000
 21
154.000000
 39
1
 62
0
  0
LINE
  8
default
  6
CONTINUOUS
 10
30.000000
 20
187.600000
 11
39.000000
 21
187.600000
 39
1
 62
0
  0
LINE
  8
default
  6
CONTINUOUS
 10
39.000000
 20
187.600000
 11
39.000000
 21
202.100000
 39
1
 62
0
  0
LINE
  8
default
  6
CONTINUOUS
 10
39.000000
 20
202.100000
 11
30.000000
 21
202.100000
 39
1
 62
0
  0
LINE
  8
default
  6
CONTINUOUS
 10
30.000000
 20
202.100000
 11
30.000000
 21
187.600000
 39
1
 62
0
  0
LINE
  8
default
  6
CONTINUOUS
 10
30.000000
 20
205.991272
 11
39.000000
 21
205.991272
 39
1
 62
0
  0
LINE
  8
default
  6
CONTINUOUS
 10
29.975848
 20
203.408012
 11
29.975848
 21
208.672193
 39
1
 62
0
  0
LINE
  8
default
  6
CONTINUOUS
 10
29.975848
 20
208.672193
 11
38.942237
 21
208.698780
 39
1
 62
0
  0
LINE
  8
default
  6
CONTINUOUS
 10
38.942237
 20
208.698780
 11
38.975470
 21
203.015857
 39
1
 62
0
  0
LINE
  8
default
  6
CONTINUOUS
 10
30.000000
 20
163.000000
 11
57.000000
 21
163.000000
 39
1
 62
0
  0
LINE
  8
default
  6
CONTINUOUS
 10
30.000000
 20
154.000000
 11
57.000000
 21
154.000000
 39
1
 62
0
  0
POINT
  8
default
  6
CONTINUOUS
 10
84.000000
 20
120.000000
 39
1
 62
0
  0
POINT
  8
default
  6
CONTINUOUS
 10
84.000000
 20
120.000000
 39
1
 62
0
  0
LINE
  8
default
  6
CONTINUOUS
 10
84.000000
 20
120.000000
 11
84.000000
 21
206.000000
 39
1
 62
0
  0
LINE
  8
default
  6
CONTINUOUS
 10
75.000000
 20
163.000000
 11
75.000000
 21
206.000000
 39
1
 62
0
  0
LINE
  8
default
  6
CONTINUOUS
 10
75.000000
 20
120.000000
 11
75.000000
 21
154.000000
 39
1
 62
0
  0
LINE
  8
default
  6
CONTINUOUS
 10
84.000000
 20
187.600000
 11
75.000000
 21
187.600000
 39
1
 62
0
  0
LINE
  8
default
  6
CONTINUOUS
 10
75.000000
 20
187.600000
 11
75.000000
 21
202.100000
 39
1
 62
0
  0
LINE
  8
default
  6
CONTINUOUS
 10
75.000000
 20
202.100000
 11
84.000000
 21
202.100000
 39
1
 62
0
  0
LINE
  8
default
  6
CONTINUOUS
 10
84.000000
 20
202.100000
 11
84.000000
 21
187.600000
 39
1
 62
0
  0
LINE
  8
default
  6
CONTINUOUS
 10
84.000000
 20
205.991272
 11
75.000000
 21
205.991272
 39
1
 62
0
  0
LINE
  8
default
  6
CONTINUOUS
 10
84.024152
 20
203.408012
 11
84.024152
 21
208.672193
 39
1
 62
0
  0
LINE
  8
default
  6
CONTINUOUS
 10
84.024152
 20
208.672193
 11
75.057763
 21
208.698780
 39
1
 62
0
  0
LINE
  8
default
  6
CONTINUOUS
 10
75.057763
 20
208.698780
 11
75.024530
 21
203.015857
 39
1
 62
0
  0
LINE
  8
default
  6
CONTINUOUS
 10
84.000000
 20
163.000000
 11
57.000000
 21
163.000000
 39
1
 62
0
  0
LINE
  8
default
  6
CONTINUOUS
 10
84.000000
 20
154.000000
 11
57.000000
 21
154.000000
 39
1
 62
0
  0
POINT
  8
default
  6
CONTINUOUS
 10
38.692328
 20
208.698039
 39
1
 62
0
  0
POINT
  8
default
  6
CONTINUOUS
 10
57.000000
 20
208.700000
 39
1
 62
0
  0
POINT
  8
default
  6
CONTINUOUS
 10
90.000000
 20
208.700000
 39
1
 62
0
  0
LINE
  8
default
  6
CONTINUOUS
 10
38.304016
 20
208.700000
 11
62.244026
 21
208.700000
 39
1
 62
0
  0
LINE
  8
default
  6
CONTINUOUS
 10
38.304016
 20
210.600000
 11
62.244026
 21
210.600000
 39
1
 62
0
  0
LINE
  8
default
  6
CONTINUOUS
 10
90.000000
 20
208.700000
 11
24.000000
 21
208.700000
 39
1
 62
0
  0
LINE
  8
default
  6
CONTINUOUS
 10
90.000000
 20
210.600000
 11
24.000000
 21
210.600000
 39
1
 62
0
  0
LINE
  8
default
  6
CONTINUOUS
 10
24.000000
 20
208.700000
 11
24.000000
 21
210.600000
 39
1
 62
0
  0
LINE
  8
default
  6
CONTINUOUS
 10
90.000000
 20
210.600000
 11
90.000000
 21
208.700000
 39
1
 62
0
  0
LINE
  8
default
  6
CONTINUOUS
 10
84.000000
 20
208.700000
 11
85.900000
 21
208.700000
 39
1
 62
0
  0
LINE
  8
default
  6
CONTINUOUS
 10
85.900000
 20
208.700000
 11
85.900000
 21
205.200000
 39
1
 62
0
  0
LINE
  8
default
  6
CONTINUOUS
 10
28.100000
 20
205.200000
 11
28.100000
 21
208.700000
 39
1
 62
0
  0
DIMENSION
  8
default
  6
CONTINUOUS
  1
;;
 10
58.495395
 20
154.000000
 13
53.877337
 23
154.000000
 14
58.495395
 24
120.000000
 50
90.000000
 70
0
 39
1
 62
0
  0
DIMENSION
  8
default
  6
CONTINUOUS
  1
;;
 10
90.000000
 20
191.649386
 13
90.000000
 23
209.351939
 14
24.000000
 24
209.351939
 50
0.000000
 70
0
 39
1
 62
0
  0
POINT
  8
default
  6
CONTINUOUS
 10
125.000000
 20
120.000000
 39
1
 62
0
  0
LINE
  8
default
  6
CONTINUOUS
 10
125.000000
 20
120.000000
 11
125.000000
 21
180.000000
 39
1
 62
0
  0
LINE
  8
default
  6
DASH
 10
158.000000
 20
180.000000
 11
158.000000
 21
120.000000
 39
1
 62
0
  0
LINE
  8
default
  6
CONTINUOUS
 10
131.000000
 20
154.100000
 11
131.000000
 21
145.900000
 39
1
 62
0
  0
LINE
  8
default
  6
CONTINUOUS
 10
131.000000
 20
145.903061
 11
137.000000
 21
145.903061
 39
1
 62
0
  0
LINE
  8
default
  6
CONTINUOUS
 10
136.964448
 20
145.903061
 11
136.964448
 21
154.103061
 39
1
 62
0
  0
LINE
  8
default
  6
CONTINUOUS
 10
136.964448
 20
154.103061
 11
130.964448
 21
154.103061
 39
1
 62
0
  0
LINE
  8
default
  6
CONTINUOUS
 10
125.000000
 20
180.000000
 11
157.876156
 21
180.000000
 39
1
 62
0
  0
LINE
  8
default
  6
CONTINUOUS
 10
158.021664
 20
120.000000
 11
125.000000
 21
120.000000
 39
1
 62
0
  0
LINE
  8
default
  6
DASH
 10
131.102688
 20
175.000000
 11
129.202986
 21
175.000000
 39
1
 62
0
  0
LINE
  8
default
  6
DASH
 10
129.202986
 20
175.000000
 11
129.202986
 21
171.502639
 39
1
 62
0
  0
LINE
  8
default
  6
DASH
 10
129.202986
 20
171.502639
 11
131.102688
 21
171.502639
 39
1
 62
0
  0
LINE
  8
default
  6
DASH
 10
131.102688
 20
171.502639
 11
131.102688
 21
175.000000
 39
1
 62
0
  0
DIMENSION
  8
default
  6
DASH
  1
;;
 10
125.000000
 20
160.058776
 13
125.000000
 23
162.095888
 14
131.000000
 24
161.513856
 50
0.000000
 70
0
 39
1
 62
0
  0
DIMENSION
  8
default
  6
DASH
  1
;;
 10
143.761882
 20
154.103061
 13
134.594880
 23
154.103061
 14
135.031404
 24
145.903061
 50
90.000000
 70
0
 39
1
 62
0
  0
POINT
  8
default
  6
CONTINUOUS
 10
190.752173
 20
119.904114
 39
1
 62
0
  0
LINE
  8
default
  6
CONTINUOUS
 10
190.752173
 20
119.904114
 11
190.927168
 21
179.903859
 39
1
 62
0
  0
LINE
  8
default
  6
CONTINUOUS
 10
184.851654
 20
154.021468
 11
184.827738
 21
145.821503
 39
1
 62
0
  0
LINE
  8
default
  6
CONTINUOUS
 10
184.827747
 20
145.824565
 11
178.827772
 21
145.842064
 39
1
 62
0
  0
LINE
  8
default
  6
CONTINUOUS
 10
178.863324
 20
145.841961
 11
178.887240
 21
154.041926
 39
1
 62
0
  0
LINE
  8
default
  6
CONTINUOUS
 10
178.887240
 20
154.041926
 11
184.887214
 21
154.024426
 39
1
 62
0
  0
LINE
  8
default
  6
CONTINUOUS
 10
190.927168
 20
179.903859
 11
158.051151
 21
179.999745
 39
1
 62
0
  0
LINE
  8
default
  6
CONTINUOUS
 10
157.730649
 20
120.000424
 11
190.752173
 21
119.904114
 39
1
 62
0
  0
LINE
  8
default
  6
DASH
 10
184.809922
 20
174.921679
 11
186.709617
 21
174.916138
 39
1
 62
0
  0
LINE
  8
default
  6
DASH
 10
186.709617
 20
174.916138
 11
186.699416
 21
171.418793
 39
1
 62
0
  0
LINE
  8
default
  6
DASH
 10
186.699416
 20
171.418793
 11
184.799722
 21
171.424333
 39
1
 62
0
  0
LINE
  8
default
  6
DASH
 10
184.799722
 20
171.424333
 11
184.809922
 21
174.921679
 39
1
 62
0
  0
DIMENSION
  8
default
  6
DASH
  1
;;
 10
190.874949
 20
160.058776
 13
190.874949
 23
161.999823
 14
184.873277
 24
161.435293
 50
0.000000
 70
0
 39
1
 62
0
  0
DIMENSION
  8
default
  6
DASH
  1
;;
 10
130.957180
 20
179.917414
 13
186.279579
 23
179.917414
 14
185.973981
 24
174.918284
 50
90.000000
 70
0
 39
1
 62
0
  0
LINE
  8
default
  6
DASH
 10
184.927970
 20
180.187699
 11
184.750912
 21
119.480671
 39
1
 62
0
  0
LINE
  8
default
  6
DASH
 10
131.000000
 20
180.000000
 11
131.000000
 21
119.559055
 39
1
 62
0
  0
DIMENSION
  8
default
  6
CONTINUOUS
  1
;;
 10
130.957180
 20
180.000000
 13
129.647609
 23
180.000000
 14
129.938624
 24
175.000000
 50
90.000000
 70
0
 39
1
 62
0
  0
DIMENSION
  8
default
  6
CONTINUOUS
  1
;;
 10
140.415199
 20
180.000000
 13
135.758944
 23
180.000000
 14
136.340976
 24
154.103061
 50
90.000000
 70
0
 39
1
 62
0
  0
LINE
  8
default
  6
DASH
 10
190.839670
 20
149.903986
 11
124.839951
 21
150.096481
 39
1
 62
0
  0
TEXT
  8
default
  6
CONTINUOUS
 10
199.698809
 20
94.822264
 40
8.000000
 50
0.000000
 72
0
  7
Normal#0.800000#4.800000
  1
front
 39
1
 62
0
  0
TEXT
  8
default
  6
CONTINUOUS
 10
49.057954
 20
179.763598
 40
8.000000
 50
0.000000
 72
0
  7
Normal#0.800000#4.800000
  1
front
 39
1
 62
0
  0
DIMENSION
  8
default
  6
CONTINUOUS
  1
;;
 10
118.455601
 20
120.000000
 13
125.000000
 23
120.000000
 14
125.000000
 24
180.000000
 50
90.000000
 70
0
 39
1
 62
0
  0
DIMENSION
  8
default
  6
CONTINUOUS
  1
;;
 10
125.000000
 20
193.573787
 13
125.000000
 23
180.000000
 14
191.000000
 24
180.000000
 50
0.000000
 70
0
 39
1
 62
0
  0
TEXT
  8
default
  6
CONTINUOUS
 10
149.427407
 20
200.161074
 40
6.000000
 50
0.000000
 72
0
  7
Normal#0.600000#3.600000
  1
front
 39
1
 62
0
  0
TEXT
  8
default
  6
CONTINUOUS
 10
198.485361
 20
148.502876
 40
6.000000
 50
0.000000
 72
0
  7
Normal#0.600000#3.600000
  1
top underside
 39
1
 62
0
  0
LINE
  8
default
  6
CONTINUOUS
 10
30.000000
 20
120.000000
 11
260.554839
 21
120.000000
 39
1
 62
0
  0
DIMENSION
  8
default
  6
CONTINUOUS
  1
35.5;;
 10
192.865459
 20
87.988837
 13
177.003762
 23
97.174285
 14
159.229091
 24
66.480470
 70
1
 39
1
 62
0
  0
DIMENSION
  8
default
  6
CONTINUOUS
  1
;;
 10
69.745180
 20
37.289385
 13
69.745180
 23
46.697636
 14
39.942690
 24
46.751853
 50
0.000000
 70
0
 39
1
 62
0
  0
DIMENSION
  8
default
  6
CONTINUOUS
  1
;;
 10
30.000000
 20
156.087097
 13
30.000000
 23
158.545161
 14
84.000000
 24
157.725806
 50
0.000000
 70
0
 39
0
 62
0
  0
DIMENSION
  8
default
  6
CONTINUOUS
  1
54cm;;
 10
131.000000
 20
140.929032
 13
131.000000
 23
151.990323
 14
184.845732
 24
151.991281
 50
0.000000
 70
0
 39
0
 62
0
  0
DIMENSION
  8
default
  6
CONTINUOUS
  1
;;
 10
129.933069
 20
9.444303
 13
128.090290
 23
9.938096
 14
150.237665
 24
92.589542
 70
1
 39
0
 62
0
  0
ENDSEC
  0
EOF
